Саше И Юре Вместе 35 Лет

prived

Саше И Юре Вместе 35 Лет

На рисунке ниже показано, как захватывать петли при вязании классическим способом Саше и юре вместе 35 лет каким представляет время . Программа обучения показала, как их объединить в единую систему. Детский Фестиваль Мыльных Пузырей. Но не забудем этот первый год вовек. Например: Ты хочешь стать сильным и выносливым Саше и юре вместе 35 лет каким представляет время . Аналогично обстоит дело и с провязыванием вместе изнаночных петель под задние стенки. — Людмила Александровна, в октябре минувшего года вам исполнилось 90 лет. Спектр тем самый широкий: от разделения общего банковского счета до выкупа дорогой техники и предметов интерьера. Самые активные участники недели: Существительное с предлогом « в месте » можно разбить прилагательным — « в (каком Саше и юре вместе 35 лет каким представляет время . Ты у меня самая лучшая. Две петли вместе изнаночной с наклоном влево.

Двести Лет Вместе, 1795-1995 by Aleksandr Solzhenitsyn

«Двести лет вместе (1795—1995)» — литературно-историческое исследование А. И. Солженицына, посвящённое русско-еврейским отношениям в Российской империи и СССР в период между 1795 и 1995 годами.

Мы вместе 20 лет — Алиса | Last.fm

Listen free to Алиса – Мы вместе 20 лет (Intro, Родина and more). 30 tracks (146:34). Discover more music, concerts, videos, and pictures with the largest catalogue online at Last.fm.

m.nt.am

News Line; TV shows; Press Club; English. Հայերեն; Русский ...

Маша и Медведь 40 лет спусть NEW!!!

Маша и Медведь - 🤣 Не скучай - мультики смотри! 🏠 Дома вместе! Маша и Медведь 9,018 watching Live now

News from Armenia and Diaspora, information-analytic ...

News from Armenia and Diaspora, upcoming events of Armenia, soon, dates, news of the Armenian world, Artsakh, Nagorno Karabakh, NKR, The Noyan Tapan Highlights weekly in English and French, publishing, books, Armenian media, Printing house

Masha and the Bear Have fun together - play puzzles for kids Masha and the Bear

Маша и Медведь - Веселимся вместе - собираем пазлы для детей Маша и Медведь. Пазлы с героями из мультика Маша ...

Библия капиталиста. Пакет «Рантье» | Денис Борисов | download

You can write a book review and share your experiences. Other readers will always be interested in your opinion of the books you've read. Whether you've loved the book or not, if you give your honest and detailed thoughts then people will find new books that are right for them.

С ДНЁМ СВАДЬБЫ!!! 40 ЛЕТ ВМЕСТЕ!!!

С ДНЁМ СВАДЬБЫ!!! 40 ЛЕТ ВМЕСТЕ!!! ... 35. 12 Year Old Boy ... Валентина Толкунова: творчество и судьба Recommended for you. 2:36:31. Ruby ...

Keep up Your Russian | Dennis Ward | download

fem 35. imperative 28. neut 28. vowel 26. gerund 26. consonant 26. singular 24. adj 24. adjectives 23. acc 23. participle 23. conjugation 22. ofthe 20. neuter 19. consonants 19. reflexive 18. idiomatic 18. declension 18. infinitive 18. third pers 17. pronoun 16. tense masc 15. first pers 14. verbs with infin 14. perfective 13. i11 13. preposition 13. gerunds 13. past gerund 12. nominative 12 ...

[TR24][OF] John Lennon - Gimme Some Truth. (Deluxe) - 2020 ...

DR11 -0.35 дБ -13.43 дБ 3:31 23-Stand By Me (Ultimate Mix) DR9 -0.20 дБ -10.31 дБ 3:41 24-Angel Baby (Ultimate Mix) DR10 -0.20 дБ -12.52 дБ 3:55 25-(Just Like) Starting Over (Ultimate Mix) DR9 -0.20 дБ -10.40 дБ 3:59 26-I'm Losing You (Ultimate Mix) DR12 -0.23 дБ -15.27 дБ 4:02 27-Beautiful Boy (Darling Boy) (Ultimate Mix) DR10 -0.20 дБ -12.45 дБ 3:33 28-Watching The ...

169